un foro para compartir y pasarla bien


    Rapido y Furioso 5 (2011) [BRrip] [Dual: Cast(HQ)/Lat(AC3)] [Accion]

    Comparte

    KAKA

    Mensajes : 1
    Fecha de inscripción : 19/08/2011

    Rapido y Furioso 5 (2011) [BRrip] [Dual: Cast(HQ)/Lat(AC3)] [Accion]

    Mensaje por KAKA el Vie Ago 19, 2011 11:58 pm

    Rapido y Furioso 5 (2011) [BRrip] [Dual: Cast(HQ)/Lat(AC3)] [Accion]



    TÍTULO ORIGINAL Fast Five (The Fast and the Furious 5)
    AÑO 2011
    DURACIÓN 130 min.
    DIRECTOR Justin Lin
    GUIÓN Chris Morgan
    MÚSICA Brian Tyler
    FOTOGRAFÍA Stephen F. Windon
    REPARTO Vin Diesel, Paul Walker, Dwayne "The Rock" Johnson, Jordana Brewster, Tyrese Gibson, Elsa Pataky, Sung Kang, Matt Schulze, Ludacris, Joaquim de Almeida
    PRODUCTORA Universal Pictures / Original Film
    WEB OFICIAL http://www.fastandfurious5.es
    GÉNERO Acción. Comedia | Automovilismo. Crimen. Robos & Atracos. Secuela


    SINOPSIS :
    Desde que Brian O'Conner (Paul Walker) y Mia Toretto (Jordana Brewster) sacaron a Dom Toretto (Vin Diesel) de la cárcel, se han visto obligados a huir y cruzar muchas fronteras para evitar a la policía. Atrapados en Río de Janeiro, una vez más tienen que darse a la fuga si quieren conservar la libertad. Pero los tres saben muy bien que la única posibilidad que tienen de poner fin a esta situación es enfrentarse de una vez por todas al empresario corrupto que quiere verlos muertos. Pero éste no es el único que les sigue la pista...

    CAPTURAS:



    INFO:

    Format : AVI
    Format/Info : Audio Video Interleave
    Format profile : OpenDML
    File size : 2.35 GiB
    Duration : 2h 10mn
    Overall bit rate : 2 579 Kbps
    Writing application : VirtualDubMod 1.5.10.2 (build 2542/release)
    Writing library : VirtualDubMod build 2542/release

    Video
    ID : 0
    Format : MPEG-4 Visual
    Format profile : Advanced Simple@L5
    Format settings, BVOP : 2
    Format settings, QPel : No
    Format settings, GMC : No warppoints
    Format settings, Matrix : Custom
    Codec ID : XVID
    Codec ID/Hint : XviD
    Duration : 2h 10mn
    Bit rate : 1 793 Kbps
    Width : 720 pixels
    Height : 304 pixels
    Display aspect ratio : 2.35:1
    Frame rate : 23.976 fps
    Color space : YUV
    Chroma subsampling : 4:2:0
    Bit depth : 8 bits
    Scan type : Progressive
    Compression mode : Lossy
    Bits/(Pixel*Frame) : 0.342
    Stream size : 1.63 GiB (70%)
    Writing library : XviD 58

    Audio #1
    ID : 1
    Format : MPEG Audio
    Format version : Version 1
    Format profile : Layer 3
    Mode : Joint stereo
    Mode extension : MS Stereo
    Codec ID : 55
    Codec ID/Hint : MP3
    Duration : 2h 10mn
    Bit rate mode : Constant
    Bit rate : 128 Kbps
    Channel(s) : 2 channels
    Sampling rate : 48.0 KHz
    Compression mode : Lossy
    Delay relative to video : 5s 448ms
    Stream size : 119 MiB (5%)
    Alignment : Split accross interleaves
    Interleave, duration : 42 ms (1.00 video frame)
    Interleave, preload duration : 504 ms
    Writing library : LAME3.98.4

    Audio #2
    ID : 2
    Format : AC-3
    Format/Info : Audio Coding 3
    Mode extension : CM (complete main)
    Codec ID : 2000
    Duration : 2h 10mn
    Bit rate mode : Constant
    Bit rate : 640 Kbps
    Channel(s) : 6 channels
    Channel positions : Front: L C R, Side: L R, LFE
    Sampling rate : 48.0 KHz
    Bit depth : 16 bits
    Compression mode : Lossy
    Stream size : 597 MiB (25%)
    Alignment : Split accross interleaves
    Interleave, duration : 42 ms (1.00 video frame)
    Interleave, preload duration : 500 ms

    Enlaces de Descarga

    wupload
    codigo:
    wupload.com Fast_five_BRrip_dual_JusNaturel.part1.rar
    wupload.com Fast_five_BRrip_dual_JusNaturel.part2.rar
    wupload.com Fast_five_BRrip_dual_JusNaturel.part3.rar
    wupload.com Fast_five_BRrip_dual_JusNaturel.part4.rar


    uploadstation
    codigo:
    uploadstation.com/file/uySBM4y
    uploadstation.com/file/YAMTvYj
    uploadstation.com/file/cwyj7cU
    uploadstation.com/file/WKcxT6c


    Enlaces Intercambiables !!!





      Fecha y hora actual: Dom Dic 16, 2018 5:29 pm